苦逼上班族生活网

搜索

恶名 Infamous.2020.720p.BluRay.x264-GETiT 2.56GB [复制链接]

[复制链接]
admin 发表于 2021-4-26 10:09:56 | 显示全部楼层 |阅读模式
-->
帖子完整标题:恶名 Infamous.2020.720p.BluRay.x264-GETiT 2.56GB



064008bmajzas57sfqqsqm.jpg


[/url]

◎译  名 恶名/Southland/南方之地
◎片  名 Infamous
◎年  代 2020
◎产  地 美国
◎类  别 犯罪
◎语  言 英语
◎上映日期 2020-06-12(美国)
◎IMDb评分 4.1/10 from 2233 users

◎豆瓣评分 4.9/10 from 518 users
◎ 
◎导  演 Joshua Caldwell
◎编  剧 Joshua Caldwell
◎主  演 贝拉·索恩 Bella Thorne
      杰克·曼利 Jake Manley
      玛莉莎·寇兰 Marisa Coughlan

◎标  签 犯罪 | 美国 | 2020 | 剧情 | 动作 | 贝拉·索恩 | 美国电影 | 悬疑

◎简  介

  Two young lovers rob their way across the southland, posting their exploits to social media, and gaining fame and followers as a result.
Video
ID : 1
Format : AVC
Format/Info : Advanced Video Codec
Format profile :
Format settings : CABAC / 8 Ref Frames
Format settings, CABAC : Yes
Format settings, Reference frames : 8 frames
Codec ID : V_MPEG4/ISO/AVC
Duration : 1 h 40 min
Bit rate : 2 997 kb/s
Width : 1 280 pixels
Height : 538 pixels
Display aspect ratio : 2.40:1
Frame rate mode : Constant
Frame rate : 24.000 FPS
Color space : YUV
Chroma subsampling : 4:2:0
Bit depth : 8 bits
Scan type : Progressive
Bits/(Pixel*Frame) : 0.181
Stream size : 2.10 GiB (82%)
Writing library : x264 core 161 r3048 b86ae3c
Encoding settings : cabac=1 / ref=8 / deblock=1:-3:-3 / analyse=0x3:0x133 / me=umh / subme=9 / psy=1 / psy_rd=1.00:0.00 / mixed_ref=1 / me_range=16 / chroma_me=1 / trellis=2 / 8x8dct=1 / cqm=0 / deadzone=21,11 / fast_pskip=1 / chroma_qp_offset=-2 / threads=12 / lookahead_threads=1 / sliced_threads=0 / nr=0 / decimate=1 / interlaced=0 / bluray_compat=0 / constrained_intra=0 / bframes=3 / b_pyramid=2 / b_adapt=2 / b_bias=0 / direct=3 / weightb=1 / open_gop=0 / weightp=2 / keyint=250 / keyint_min=24 / scenecut=40 / intra_refresh=0 / rc_lookahead=60 / rc=crf / mbtree=1 / crf=17.0 / qcomp=0.60 / qpmin=0 / qpmax=69 / qpstep=4 / ip_ratio=1.40 / aq=3:0.80
Language : English
Default : Yes
Forced : No
Color range : Limited
Matrix coefficients : BT.709

Audio
ID : 2
Format : AC-3
Format/Info : Audio Coding 3
Commercial name : Dolby Digital
Codec ID : A_AC3
Duration : 1 h 40 min
Bit rate mode : Constant
Bit rate : 640 kb/s
Channel(s) : 6 channels
Channel layout : L R C LFE Ls Rs
Sampling rate : 48.0 kHz
Frame rate : 31.250 FPS (1536 SPF)
Compression mode : Lossy
Stream size : 458 MiB (18%)
Title : ac3
Language : English
Service kind : Complete Main
Default : Yes
Forced : No

Text #1
ID : 3
Format : UTF-8
Codec ID : S_TEXT/UTF8
Codec ID/Info : UTF-8 Plain Text
Duration : 1 h 0 min
Bit rate : 1 b/s
Count of elements : 23
Stream size : 689 Bytes (0%)
Title : forced
Language : English
Default : Yes
Forced : No

Text #2
ID : 4
Format : PGS
Muxing mode : zlib
Codec ID : S_HDMV/PGS
Codec ID/Info : Picture based subtitle format used on BDs/HD-DVDs
Duration : 1 h 32 min
Bit rate : 18.2 kb/s
Count of elements : 2114
Stream size : 12.0 MiB (0%)
Title : sub
Language : German
Default : No
Forced : No

Menu
00:00:00.000 : en:00:00:00.000
00:04:54.042 : en:00:04:54.042
00:10:22.083 : en:00:10:22.083
00:17:21.208 : en:00:17:21.208
00:22:40.125 : en:00:22:40.125
00:30:10.875 : en:00:30:10.875
00:36:08.875 : en:00:36:08.875
00:42:07.958 : en:00:42:07.958
00:50:12.375 : en:00:50:12.375
00:58:22.542 : en:00:58:22.542
01:06:11.417 : en:01:06:11.417
01:14:35.958 : en:01:14:35.958
01:19:11.708 : en:01:19:11.708
01:25:35.000 : en:01:25:35.000
01:29:11.583 : en:01:29:11.583
01:33:53.750 : en:01:33:53.750

064008bmajzas57sfqqsqm.jpg


[/url]




4f304fdb2dd157f6b2a22e1e369d7901.zip (26.27 KB, 下载次数: 13)
回复

使用道具 举报

全部回复1 显示全部楼层
admin 发表于 2021-4-26 10:38:51 | 显示全部楼层
-->
帖子完整标题:恶名 Infamous.2020.720p.BluRay.x264-GETiT 2.56GB


064008bmajzas57sfqqsqm.jpg
[/url]

◎译  名 恶名/Southland/南方之地
◎片  名 Infamous
◎年  代 2020
◎产  地 美国
◎类  别 犯罪
◎语  言 英语
◎上映日期 2020-06-12(美国)
◎IMDb评分  4.1/10 from 2233 users
◎  
◎豆瓣评分 4.9/10 from 518 users
◎ 
◎导  演 Joshua Caldwell
◎编  剧 Joshua Caldwell
◎主  演 贝拉·索恩 Bella Thorne
       杰克·曼利 Jake Manley
       玛莉莎·寇兰 Marisa Coughlan

◎标  签 犯罪 | 美国 | 2020 | 剧情 | 动作 | 贝拉·索恩 | 美国电影 | 悬疑

◎简  介

  Two young lovers rob their way across the southland, posting their exploits to social media, and gaining fame and followers as a result.
Video
ID                                       : 1
Format                                   : AVC
Format/Info                              : Advanced Video Codec
Format profile                           :
Format settings                          : CABAC / 8 Ref Frames
Format settings, CABAC                   : Yes
Format settings, Reference frames        : 8 frames
Codec ID                                 : V_MPEG4/ISO/AVC
Duration                                 : 1 h 40 min
Bit rate                                 : 2 997 kb/s
Width                                    : 1 280 pixels
Height                                   : 538 pixels
Display aspect ratio                     : 2.40:1
Frame rate mode                          : Constant
Frame rate                               : 24.000 FPS
Color space                              : YUV
Chroma subsampling                       : 4:2:0
Bit depth                                : 8 bits
Scan type                                : Progressive
Bits/(Pixel*Frame)                       : 0.181
Stream size                              : 2.10 GiB (82%)
Writing library                          : x264 core 161 r3048 b86ae3c
Encoding settings                        : cabac=1 / ref=8 / deblock=1:-3:-3 / analyse=0x3:0x133 / me=umh / subme=9 / psy=1 / psy_rd=1.00:0.00 / mixed_ref=1 / me_range=16 / chroma_me=1 / trellis=2 / 8x8dct=1 / cqm=0 / deadzone=21,11 / fast_pskip=1 / chroma_qp_offset=-2 / threads=12 / lookahead_threads=1 / sliced_threads=0 / nr=0 / decimate=1 / interlaced=0 / bluray_compat=0 / constrained_intra=0 / bframes=3 / b_pyramid=2 / b_adapt=2 / b_bias=0 / direct=3 / weightb=1 / open_gop=0 / weightp=2 / keyint=250 / keyint_min=24 / scenecut=40 / intra_refresh=0 / rc_lookahead=60 / rc=crf / mbtree=1 / crf=17.0 / qcomp=0.60 / qpmin=0 / qpmax=69 / qpstep=4 / ip_ratio=1.40 / aq=3:0.80
Language                                 : English
Default                                  : Yes
Forced                                   : No
Color range                              : Limited
Matrix coefficients                      : BT.709

Audio
ID                                       : 2
Format                                   : AC-3
Format/Info                              : Audio Coding 3
Commercial name                          : Dolby Digital
Codec ID                                 : A_AC3
Duration                                 : 1 h 40 min
Bit rate mode                            : Constant
Bit rate                                 : 640 kb/s
Channel(s)                               : 6 channels
Channel layout                           : L R C LFE Ls Rs
Sampling rate                            : 48.0 kHz
Frame rate                               : 31.250 FPS (1536 SPF)
Compression mode                         : Lossy
Stream size                              : 458 MiB (18%)
Title                                    : ac3
Language                                 : English
Service kind                             : Complete Main
Default                                  : Yes
Forced                                   : No

Text #1
ID                                       : 3
Format                                   : UTF-8
Codec ID                                 : S_TEXT/UTF8
Codec ID/Info                            : UTF-8 Plain Text
Duration                                 : 1 h 0 min
Bit rate                                 : 1 b/s
Count of elements                        : 23
Stream size                              : 689 Bytes (0%)
Title                                    : forced
Language                                 : English
Default                                  : Yes
Forced                                   : No

Text #2
ID                                       : 4
Format                                   : PGS
Muxing mode                              : zlib
Codec ID                                 : S_HDMV/PGS
Codec ID/Info                            : Picture based subtitle format used on BDs/HD-DVDs
Duration                                 : 1 h 32 min
Bit rate                                 : 18.2 kb/s
Count of elements                        : 2114
Stream size                              : 12.0 MiB (0%)
Title                                    : sub
Language                                 : German
Default                                  : No
Forced                                   : No

Menu
00:00:00.000                             : en:00:00:00.000
00:04:54.042                             : en:00:04:54.042
00:10:22.083                             : en:00:10:22.083
00:17:21.208                             : en:00:17:21.208
00:22:40.125                             : en:00:22:40.125
00:30:10.875                             : en:00:30:10.875
00:36:08.875                             : en:00:36:08.875
00:42:07.958                             : en:00:42:07.958
00:50:12.375                             : en:00:50:12.375
00:58:22.542                             : en:00:58:22.542
01:06:11.417                             : en:01:06:11.417
01:14:35.958                             : en:01:14:35.958
01:19:11.708                             : en:01:19:11.708
01:25:35.000                             : en:01:25:35.000
01:29:11.583                             : en:01:29:11.583
01:33:53.750                             : en:01:33:53.750
064008bmajzas57sfqqsqm.jpg
[/url]



                                                                                                                                                                                                        
                                                                                                                                                                                                                                                                                                                                                                                                                                                                                                                                                                                                                                                                                                                                                                                                                                                         4f304fdb2dd157f6b2a22e1e369d7901.zip (26.27 KB, 下载次数: 8)
回复 支持 反对

使用道具 举报

发表回复

您需要登录后才可以回帖 登录 | 注-册

本版积分规则

楼主

管理员
联系客服 关注微信 下载APP 返回顶部 返回列表