苦逼上班族生活网

搜索

船长二世/小比尔号汽船 Steamboat.Bill.Jr.1928.REMASTERED.720p.BluRay.x264-USURY 4 ...

[复制链接]
admin 发表于 2021-4-26 10:10:12 | 显示全部楼层 |阅读模式
-->
帖子完整标题:船长二世/小比尔号汽船 Steamboat.Bill.Jr.1928.REMASTERED.720p.BluRay.x264-USURY 4.29GB



085816qz850ct0mcn58sjm.jpg


[/url]

◎译  名 船长二世/小比尔号汽船
◎片  名 Steamboat Bill, Jr.
◎年  代 1928
◎产  地 美国
◎类  别 剧情 / 喜剧 / 动作 / 爱情 / 家庭
◎语  言 英语
◎上映日期 1928-05-12(美国)
◎IMDb评分 7.9/10 from 13451 users

◎豆瓣评分 8.6/10 from 2869 users
◎ 
◎片  长 70分钟
◎导  演 查尔斯·赖斯纳 Charles Reisner / 巴斯特·基顿 Buster Keaton
◎编  剧 卡尔·哈博 Carl Harbaugh
◎主  演 巴斯特·基顿 Buster Keaton
      汤姆·麦奎尔 Tom McGuire
      欧内斯特·托伦斯 Ernest Torrence
      汤姆·刘易斯 Tom Lewis
      玛丽昂·拜伦 Marion Byron
      乔·基顿 Joe Keaton
      詹姆斯·T·麦克 James T. Mack

◎标  签 美国 | 默片 | 喜剧 | 黑白 | 1928 | 爱情 | 动作 | 剧情

◎简  介

  船长老比尔已多年未见自己的儿子了,可当儿子终于大学毕业出现在老比尔面前时,他矮小的身材却不禁让万分期待的老比尔颇感失望。与此同时,小比尔的女友也回乡拜访父亲,没想到却是老比尔的死对头金船长。两人的感情面临危机。一天,一场飓风突如其来,更让港口险象环生。
  
  本片与《将军号》一起被认为是巴斯特·基顿的杰作。
Video
ID : 1
Format : AVC
Format/Info : Advanced Video Codec
Format profile :
Format settings : CABAC / 12 Ref Frames
Format settings, CABAC : Yes
Format settings, Reference frames : 12 frames
Codec ID : V_MPEG4/ISO/AVC
Duration : 1 h 11 min
Bit rate : 7 974 kb/s
Width : 950 pixels
Height : 720 pixels
Display aspect ratio : 4:3
Frame rate mode : Constant
Frame rate : 23.976 (24000/1001/189150) FPS
Color space : YUV
Chroma subsampling : 4:2:0
Bit depth : 8 bits
Scan type : Progressive
Bits/(Pixel*Frame) : 0.486
Stream size : 3.97 GiB (93%)
Writing library : x264 core 161 r3053 c347e7a
Encoding settings : cabac=1 / ref=12 / deblock=1:-3:-3 / analyse=0x3:0x133 / me=umh / subme=10 / psy=1 / psy_rd=1.00:0.15 / mixed_ref=1 / me_range=24 / chroma_me=1 / trellis=2 / 8x8dct=1 / cqm=0 / deadzone=21,11 / fast_pskip=1 / chroma_qp_offset=-3 / threads=18 / lookahead_threads=3 / sliced_threads=0 / nr=0 / decimate=1 / interlaced=0 / bluray_compat=0 / constrained_intra=0 / bframes=8 / b_pyramid=2 / b_adapt=2 / b_bias=0 / direct=3 / weightb=1 / open_gop=0 / weightp=2 / keyint=250 / keyint_min=23 / scenecut=40 / intra_refresh=0 / rc_lookahead=60 / rc=crf / mbtree=1 / crf=21.0 / qcomp=0.60 / qpmin=0 / qpmax=69 / qpstep=4 / ip_ratio=1.40 / aq=3:0.50
Language : English
Default : Yes
Forced : No
Color range : Limited
Matrix coefficients : BT.709

Audio
ID : 2
Format : AC-3
Format/Info : Audio Coding 3
Commercial name : Dolby Digital
Codec ID : A_AC3
Duration : 1 h 11 min
Bit rate mode : Constant
Bit rate : 640 kb/s
Channel(s) : 6 channels
Channel layout : L R C LFE Ls Rs
Sampling rate : 48.0 kHz
Frame rate : 31.250 FPS (1536 SPF)
Compression mode : Lossy
Stream size : 326 MiB (7%)
Language : zxx
Service kind : Complete Main
Default : Yes
Forced : No

Menu
00:00:00.000 : en:00:00:00.000
00:11:16.551 : en:00:11:16.551
00:24:29.843 : en:00:24:29.843
00:40:07.155 : en:00:40:07.155
00:59:15.427 : en:00:59:15.427

085816qz850ct0mcn58sjm.jpg


[/url]




53d5f9ac4c99e5476280309b1fbcd25d.zip (43.68 KB, 下载次数: 14)
回复

使用道具 举报

全部回复1 显示全部楼层
admin 发表于 2021-4-26 10:38:25 | 显示全部楼层
-->
帖子完整标题:船长二世/小比尔号汽船 Steamboat.Bill.Jr.1928.REMASTERED.720p.BluRay.x264-USURY 4.29GB


085816qz850ct0mcn58sjm.jpg
[/url]

◎译  名 船长二世/小比尔号汽船
◎片  名 Steamboat Bill, Jr.
◎年  代 1928
◎产  地 美国
◎类  别 剧情 / 喜剧 / 动作 / 爱情 / 家庭
◎语  言 英语
◎上映日期 1928-05-12(美国)
◎IMDb评分  7.9/10 from 13451 users
◎  
◎豆瓣评分 8.6/10 from 2869 users
◎ 
◎片  长 70分钟
◎导  演 查尔斯·赖斯纳 Charles Reisner / 巴斯特·基顿 Buster Keaton
◎编  剧 卡尔·哈博 Carl Harbaugh
◎主  演 巴斯特·基顿 Buster Keaton
       汤姆·麦奎尔 Tom McGuire
       欧内斯特·托伦斯 Ernest Torrence
       汤姆·刘易斯 Tom Lewis
       玛丽昂·拜伦 Marion Byron
       乔·基顿 Joe Keaton
       詹姆斯·T·麦克 James T. Mack

◎标  签 美国 | 默片 | 喜剧 | 黑白 | 1928 | 爱情 | 动作 | 剧情

◎简  介

  船长老比尔已多年未见自己的儿子了,可当儿子终于大学毕业出现在老比尔面前时,他矮小的身材却不禁让万分期待的老比尔颇感失望。与此同时,小比尔的女友也回乡拜访父亲,没想到却是老比尔的死对头金船长。两人的感情面临危机。一天,一场飓风突如其来,更让港口险象环生。
  
  本片与《将军号》一起被认为是巴斯特·基顿的杰作。
Video
ID                                       : 1
Format                                   : AVC
Format/Info                              : Advanced Video Codec
Format profile                           :
Format settings                          : CABAC / 12 Ref Frames
Format settings, CABAC                   : Yes
Format settings, Reference frames        : 12 frames
Codec ID                                 : V_MPEG4/ISO/AVC
Duration                                 : 1 h 11 min
Bit rate                                 : 7 974 kb/s
Width                                    : 950 pixels
Height                                   : 720 pixels
Display aspect ratio                     : 4:3
Frame rate mode                          : Constant
Frame rate                               : 23.976 (24000/1001/189150) FPS
Color space                              : YUV
Chroma subsampling                       : 4:2:0
Bit depth                                : 8 bits
Scan type                                : Progressive
Bits/(Pixel*Frame)                       : 0.486
Stream size                              : 3.97 GiB (93%)
Writing library                          : x264 core 161 r3053 c347e7a
Encoding settings                        : cabac=1 / ref=12 / deblock=1:-3:-3 / analyse=0x3:0x133 / me=umh / subme=10 / psy=1 / psy_rd=1.00:0.15 / mixed_ref=1 / me_range=24 / chroma_me=1 / trellis=2 / 8x8dct=1 / cqm=0 / deadzone=21,11 / fast_pskip=1 / chroma_qp_offset=-3 / threads=18 / lookahead_threads=3 / sliced_threads=0 / nr=0 / decimate=1 / interlaced=0 / bluray_compat=0 / constrained_intra=0 / bframes=8 / b_pyramid=2 / b_adapt=2 / b_bias=0 / direct=3 / weightb=1 / open_gop=0 / weightp=2 / keyint=250 / keyint_min=23 / scenecut=40 / intra_refresh=0 / rc_lookahead=60 / rc=crf / mbtree=1 / crf=21.0 / qcomp=0.60 / qpmin=0 / qpmax=69 / qpstep=4 / ip_ratio=1.40 / aq=3:0.50
Language                                 : English
Default                                  : Yes
Forced                                   : No
Color range                              : Limited
Matrix coefficients                      : BT.709

Audio
ID                                       : 2
Format                                   : AC-3
Format/Info                              : Audio Coding 3
Commercial name                          : Dolby Digital
Codec ID                                 : A_AC3
Duration                                 : 1 h 11 min
Bit rate mode                            : Constant
Bit rate                                 : 640 kb/s
Channel(s)                               : 6 channels
Channel layout                           : L R C LFE Ls Rs
Sampling rate                            : 48.0 kHz
Frame rate                               : 31.250 FPS (1536 SPF)
Compression mode                         : Lossy
Stream size                              : 326 MiB (7%)
Language                                 : zxx
Service kind                             : Complete Main
Default                                  : Yes
Forced                                   : No

Menu
00:00:00.000                             : en:00:00:00.000
00:11:16.551                             : en:00:11:16.551
00:24:29.843                             : en:00:24:29.843
00:40:07.155                             : en:00:40:07.155
00:59:15.427                             : en:00:59:15.427
085816qz850ct0mcn58sjm.jpg
[/url]



                                                                                                                                                                                                        
                                                                                                                                                                                                                                                                                                                                                                                                                                                                                                                                                                                                                                                                                                                                                                                                                                                         53d5f9ac4c99e5476280309b1fbcd25d.zip (43.68 KB, 下载次数: 9)
回复 支持 反对

使用道具 举报

发表回复

您需要登录后才可以回帖 登录 | 注-册

本版积分规则

楼主

管理员
联系客服 关注微信 下载APP 返回顶部 返回列表